KEELEAD P6A pocket gimbal — Обзор экшн видеокамеры с 3-х осевым стабилизатором

Сейчас становятся видеокамеры со встроенным стабилизатором. И уже понятно, что вы можете выбирать сразу среди нескольких производителей подобный девайс. Пожалуй одними из первых стали DJI Osmo Pocket и Fimi palm gimbal camera. Сравнительный обзор к сожалению я сделать не смогу, так как данными устройствами не владею, и ранее не брал на тест. Брендовая электроника стоит гораздо дороже, за те же функции, которые есть в менее известных аналогах. И в данном обзоре я как раз рассказу про экшн видеокамеру с трёхосевым стабилизатором KEELEAD P6A pocket gimbal.

Речь идёт о широкоугольной камере с электронным стабилизатором, который к тому же очень миниатюрный и его можно поместить в кармане куртки. В комплекте идёт резиновый чехол и ремешок для крепления на руке. А так же инструкция, фирменная коробка и кабель micro usb type C. Камера обладает трёхосевым электронным стабилизатором, который очень хорошо работает, держит горизонт, и при ходьбе гасит вибрацию.

Включается камера долгим удержанием кнопки справа, физических кнопок всего 2. Это кнопка on/off и кнопка записи. Всё остальное неплохо управляется с сенсорного мини экрана, а так же при установке специального программного обеспечения Pocket Gimbal. После включения вы попадаете в меню настройки режима съёмки и управления моторами стабилизатора. Так же можно выбрать стиль стабилизации и сэлфи-режим для быстрых фото.

Что бы попасть в настройки фото и видео разрешения, нужно нажать по иконке фото или видеокамеры, а так же замедленной съёмки (SLO) и выбрать съёмку в режиме тайм-лапс. Не смотря на маленькие габариты, управляется камера легко, так де удобна она лежит в руке. Обратите внимание, камера использует 2 микрофона, это прямо перед вами и снизу, но пишет звук в моно.

 

Технические характеристики пробного видео, записанного специально для обзора:

Format : MPEG-4
Format profile : Base Media / Version 2
Codec ID : mp42 (mp42/isom)
File size : 376 MiB
Duration : 1 min 0 s
Overall bit rate : 52.2 Mb/s
Encoded date : UTC 2019-01-01 08:00:13
Tagged date : UTC 2019-01-01 08:00:13

Video
ID : 1
Format : AVC
Format/Info : Advanced Video Codec
Format profile : Main@L5.1
Format settings : CABAC / 1 Ref Frames
Format settings, CABAC : Yes
Format settings, Reference : 1 frame
Format settings, GOP : M=1, N=15
Codec ID : avc1
Codec ID/Info : Advanced Video Coding
Duration : 1 min 0 s
Bit rate : 51.7 Mb/s
Width : 3 840 pixels
Height : 2 160 pixels
Display aspect ratio : 16:9
Frame rate mode : Variable
Frame rate : 30.000 FPS
Minimum frame rate : 29.028 FPS
Maximum frame rate : 31.088 FPS
Color space : YUV
Chroma subsampling : 4:2:0
Bit depth : 8 bits
Scan type : Progressive
Bits/(Pixel*Frame) : 0.208
Stream size : 373 MiB (99%)
Title : Hisilicon VIDEO
Language : English
Encoded date : UTC 2019-01-01 08:00:13
Tagged date : UTC 2019-01-01 08:00:13
Color range : Full
Color primaries : BT.709
Transfer characteristics : BT.709
Matrix coefficients : BT.709
Codec configuration box : avcC

Audio
ID : 2
Format : AAC LC
Format/Info : Advanced Audio Codec Low Complexity
Codec ID : mp4a-40-2
Duration : 1 min 0 s
Bit rate mode : Constant
Bit rate : 128 kb/s
Channel(s) : 1 channel
Channel layout : C
Sampling rate : 48.0 kHz
Frame rate : 46.875 FPS (1024 SPF)
Compression mode : Lossy
Stream size : 925 KiB (0%)
Title : Hisilicon AUDIO
Language : English
Encoded date : UTC 2019-01-01 08:00:13
Tagged date : UTC 2019-01-01 08:00:13

Для чего нужна такая камера?

Эта камера идеально подходит для съёмки подвижных объектов, танцев, кавер клипов, можно использовать практически с любыми устройствами, соединив при помощи переходника, через 1/4 резьбу, находящуюся снизу корпуса камеры. За такую цену — камера просто супер! Берите сразу ёмкую карту памяти, я взял для записи 4K video: Samsung EVO Plus (microSDXC) 64 GB class UHS-I (U3) — стоимость карты в местном розничном магазине на момент выхода этой статьи 850 рублей.

Отличаются комплектации у продавца только наличием флешкарты и её объёмом. На фото ниже, минимальный комплект.

Кстати, видео в 4к камера снимает очень хорошо, так же есть и другие режимы, например 2K video, и конечно fullhd 60 FPS. Рекомендую уточнить у продавца или же здесь в комментариях все подробности, что бы окончательно сделать выбор в пользу данного товара. На всякий случай сфотографировал инструкцию к KEELEAD P6A:

В данной камере есть минимальный набор функций, что бы сделать творческое видео, например замедление в 2 или 4 раза, или записать timelaps. Простой интерфейс позволяет быстро разобраться и привыкнуть к камере.

Продавец очень отзывчивый и проверил мой товар перед отправкой, доставка была ePacket’ом примерно 30 дней, трек отслеживался. Посылку забрал сам на почте России. Удачных покупок и реализации ваших творческих задумок.

Ссылка на товар: https://aliexpress.ru/item/4000523502081.html

Добавить комментарий

Ваш адрес email не будет опубликован. Обязательные поля помечены *

*